<?xml version="1.0" standalone="no"?>
<!DOCTYPE svg PUBLIC "-//W3C//DTD SVG 1.1//EN" "http://www.w3.org/Graphics/SVG/1.1/DTD/svg11.dtd">
<svg xmlns="http://www.w3.org/2000/svg">
<defs >
<font id="BreeSerif" horiz-adv-x="449" ><font-face
    font-family="Bree Serif"
    units-per-em="1000"
    panose-1="2 0 5 3 4 0 0 2 0 4"
    ascent="1077"
    descent="-281"
    alphabetic="0" />
<glyph unicode=" " glyph-name="space" horiz-adv-x="200" />
<glyph unicode="!" glyph-name="exclam" horiz-adv-x="277" d="M84 529V648Q84 695 140 695T196 646V529L176 180H105L84 529ZM107 -17T89 2T70 49T89 96T138 116T188 98T207 51T189 3T139 -17Z" />
<glyph unicode="&quot;" glyph-name="quotedbl" horiz-adv-x="349" d="M56 665H149L139 435H66L56 665ZM199 665H292L283 435H209L199 665Z" />
<glyph unicode="#" glyph-name="numbersign" horiz-adv-x="534" d="M289 0L302 157H192L179 0H106L119 157H18V223H125L139 379H37V445H144L159 605H232L217 445H327L342 605H415L400 445H501V379H395L381 223H482V157H375L362 0H289ZM212 379L198 223H308L322 379H212Z" />
<glyph unicode="$" glyph-name="dollar" horiz-adv-x="535" d="M230 -91V9Q134 12 58 47V196L157 203V145Q157 131 161 125T182 112T230 106V293Q152 315 117 342T69 400T55 473Q55 547 102 595T230 655V747H305V657Q389 652 460 619V478L362 472V526Q362 540
358 546T338 558T305 564V388H306Q382 365 428 330Q486 288 486 205T437 73T305 12V-91H230ZM362 196Q362 246 305 269V113Q362 131 362 196ZM230 558Q178 540 178 489T230 414V558Z" />
<glyph unicode="%" glyph-name="percent" horiz-adv-x="801" d="M456 256T499 303T614 351T728 306T769 171T728 34T611 -14T496 32T456 167ZM611 55Q681 55 681 168T613 282Q543 282 543 169T611 55ZM34 562T77 609T192 657T306 612T347 477T306 340T189 292T74
338T34 473ZM189 361Q259 361 259 474T191 588Q121 588 121 475T189 361ZM293 -9L214 27L506 653L587 619L293 -9Z" />
<glyph unicode="&amp;" glyph-name="ampersand" horiz-adv-x="714" d="M475 220Q494 268 494 312Q494 326 476 328L444 330V408H655V327L600 325Q600 229 558 149Q603 111 684 53L618 -34Q558 6 492 60Q418 -14 292 -14T108 45T50 189Q50 321 172 397Q141 448
141 507Q141 583 192 630T335 677T516 636V485L414 478V539Q414 567 393 574Q366 582 340 582Q259 582 259 505Q259 403 475 220ZM408 130Q288 232 227 314Q166 271 166 197Q166 146 197 115T297 83T408 130Z" />
<glyph unicode="&apos;" glyph-name="quotesingle" horiz-adv-x="205" d="M56 665H149L139 435H66L56 665Z" />
<glyph unicode="(" glyph-name="parenleft" horiz-adv-x="331" d="M201 -176Q69 48 69 273T201 729L296 685Q187 470 187 279T295 -131L201 -176Z" />
<glyph unicode=")" glyph-name="parenright" horiz-adv-x="331" d="M130 731Q262 507 262 282T130 -174L35 -130Q144 85 144 276T36 686L130 731Z" />
<glyph unicode="*" glyph-name="asterisk" horiz-adv-x="452" d="M179 557L45 579L52 623Q57 655 80 663Q87 665 94 665L126 653L203 599L171 741L213 752Q224 755 237 755T261 743T273 718T271 696L253 597L370 671L395 635Q406 617 406 605Q406 565 362 562L269
554L377 474L352 438Q334 414 314 414Q288 414 272 444L224 533L156 410L116 429Q86 443 86 468T110 508L179 557Z" />
<glyph unicode="+" glyph-name="plus" horiz-adv-x="535" d="M216 364V525H318V364H472V266H318V106H216V266H62V364H216Z" />
<glyph unicode="," glyph-name="comma" horiz-adv-x="241" d="M202 79L99 -155L36 -136L67 67Q74 117 116 117Q137 117 148 111T167 100T178 94T190 87T202 79Z" />
<glyph unicode="-" glyph-name="hyphen" horiz-adv-x="322" d="M30 242V334H292V242H30Z" />
<glyph unicode="." glyph-name="period" horiz-adv-x="226" d="M78 -15T59 4T40 55T59 107T112 128T166 109T186 58T167 6T113 -15Z" />
<glyph unicode="/" glyph-name="slash" horiz-adv-x="428" d="M110 -110L8 -72L314 755L418 718L110 -110Z" />
<glyph unicode="0" glyph-name="zero" horiz-adv-x="535" d="M272 657Q499 657 499 328Q499 153 440 72T265 -10T92 70T35 321T98 574T272 657ZM213 86T267 86T350 139T380 323T352 507T268 559T185 504T156 319T184 138Z" />
<glyph unicode="1" glyph-name="one" horiz-adv-x="454" d="M205 121V514L88 454L44 531L226 644H324V90L428 85V0H80V82L176 88Q191 89 198 96T205 121Z" />
<glyph unicode="2" glyph-name="two" horiz-adv-x="513" d="M59 0V77L258 328Q289 368 299 381T318 419T328 478T305 535T245 557T190 551T168 538T164 514V443L62 450V610Q156 657 255 657T404 609T454 476T369 289L208 99H458V0H59Z" />
<glyph unicode="3" glyph-name="three" horiz-adv-x="522" d="M167 373H270Q330 411 330 480Q330 557 243 557Q211 557 190 550T165 536T161 512V440L59 447V607Q159 657 257 657T403 613T452 497Q452 445 427 403T361 334Q462 302 462 192Q462 100 405 44T236
-13Q181 -13 127 2T40 37L75 132Q154 88 232 88Q341 88 341 185Q341 235 308 258T196 282H158L167 373Z" />
<glyph unicode="4" glyph-name="four" horiz-adv-x="536" d="M347 462H417V275H506V180H416V90L499 85V0H205V82L267 87Q296 89 296 115V181H40V264L228 659L323 612L162 275H305V329L347 462Z" />
<glyph unicode="5" glyph-name="five" horiz-adv-x="507" d="M442 549H213L193 396Q305 388 375 338T446 188Q446 107 392 48T224 -11Q168 -11 115 4T29 39L69 131Q147 88 219 88Q321 88 321 186Q321 308 82 308L125 644H324Q347 644 347 672V715L442 708V549Z" />
<glyph unicode="6" glyph-name="six" horiz-adv-x="534" d="M395 671L418 581Q204 554 179 369Q242 410 319 410T443 358T489 211T433 52T268 -11T107 67T54 276Q54 633 395 671ZM372 211Q372 325 283 325Q257 325 224 313T172 286Q172 276 172 266Q172 187 195
134T275 81Q318 81 345 115T372 211Z" />
<glyph unicode="7" glyph-name="seven" horiz-adv-x="475" d="M23 644H455V561L226 0H101L336 545H147Q125 545 125 514V474L23 481V644Z" />
<glyph unicode="8" glyph-name="eight" horiz-adv-x="535" d="M47 159Q47 270 169 341Q68 403 68 490Q68 562 124 609T274 657T415 614T463 507Q463 427 368 347Q490 276 490 173Q490 94 433 42T263 -11T98 39T47 159ZM309 80T335 104T362 169T334 237T251 293Q209
265 187 237T164 170T189 106T262 80ZM352 534T329 553T269 572T208 551T184 497Q184 437 279 389Q309 409 330 439T352 502Z" />
<glyph unicode="9" glyph-name="nine" horiz-adv-x="535" d="M139 -12L115 81Q230 94 290 142T361 274Q303 236 222 236T96 288T50 435T107 593T273 657T433 579T484 370Q484 19 139 -12ZM221 564T194 530T167 439T190 353T247 323T315 334T367 360Q367 369 367
378Q367 564 266 564Q221 564 194 530Z" />
<glyph unicode=":" glyph-name="colon" horiz-adv-x="226" d="M78 -15T59 4T40 55T59 107T112 128T166 109T186 58T167 6T113 -15ZM78 353T59 372T40 423T59 475T112 496T166 477T186 426T167 374T113 353Z" />
<glyph unicode=";" glyph-name="semicolon" horiz-adv-x="241" d="M106 353T87 372T68 423T87 475T140 496T194 477T214 426T195 374T141 353ZM202 79L99 -155L36 -136L67 67Q74 117 116 117Q137 117 148 111T167 100T178 94T190 87T202 79Z" />
<glyph unicode="&lt;" glyph-name="less" horiz-adv-x="535" d="M434 537L474 448L201 322L476 190L434 100L68 280V358L434 537Z" />
<glyph unicode="=" glyph-name="equal" horiz-adv-x="535" d="M470 450V354H65V450H470ZM470 259V162H65V259H470Z" />
<glyph unicode="&gt;" glyph-name="greater" horiz-adv-x="535" d="M70 448L110 537L476 358V280L110 100L68 190L343 322L70 448Z" />
<glyph unicode="?" glyph-name="question" horiz-adv-x="433" d="M281 538Q281 601 212 601Q189 601 169 596T146 582T142 558V505L40 512V649Q136 695 223 695T354 654T397 548T371 445T302 377T249 332T237 290L232 180H136L131 285Q131 293 131 300Q131 344
147 373Q165 405 226 449Q259 473 264 481T274 498Q281 513 281 538ZM153 -17T135 2T116 49T135 96T184 116T234 98T253 51T235 3T185 -17Z" />
<glyph unicode="@" glyph-name="at" horiz-adv-x="953" d="M798 284Q798 415 723 492T492 570T248 471T159 220T238 -25T461 -117Q550 -117 619 -86L644 -159Q565 -193 462 -193T281 -160T158 -68Q67 45 67 212Q67 418 190 533T506 648Q677 648 781 554T885 287Q885
147 817 74T636 0H579L571 54L568 55Q529 -3 450 -3Q287 -3 287 201Q287 317 343 381T504 445Q576 445 654 416V123L658 70Q798 79 798 284ZM555 361Q531 372 498 372Q385 371 385 204Q385 71 473 71Q555 71 555 167V361Z" />
<glyph unicode="A" glyph-name="A" horiz-adv-x="662" d="M68 112L229 578L166 584V665H395L599 88H600L657 85V0H399V81L437 84Q454 86 460 92T461 114L440 176H206L176 88L236 85V0H5V81L38 84Q59 86 68 112ZM323 553L230 268H416L326 553H323Z" />
<glyph unicode="B" glyph-name="B" horiz-adv-x="602" d="M39 665H321Q537 665 537 498Q537 406 445 358Q504 343 537 303T571 199Q571 102 506 51T315 0H34V81L67 84Q96 87 96 112V577L39 580V665ZM218 303V94H312Q442 94 442 200Q442 250 410 276T317 303H218ZM218
573V392H292Q354 392 383 417T413 489T384 554T299 573H218Z" />
<glyph unicode="C" glyph-name="C" horiz-adv-x="602" d="M436 559Q425 578 354 578Q261 578 213 515T165 333Q165 86 350 86Q353 86 376 86T421 92T446 106T450 128V208L552 201V28Q474 -13 354 -13Q201 -13 121 73T40 329Q40 423 67 493T140 602Q230 677 354
677Q454 677 542 636V466L440 459V537Q440 552 436 559Z" />
<glyph unicode="D" glyph-name="D" horiz-adv-x="665" d="M34 0V81L67 84Q96 87 96 112V577L39 580V665H313Q460 665 542 587T625 356Q625 261 600 191T532 80Q446 0 318 0H34ZM218 568V96H320Q406 96 454 158T502 338Q502 568 307 568H218Z" />
<glyph unicode="E" glyph-name="E" horiz-adv-x="549" d="M509 0H34V81L67 84Q96 87 96 112V577L39 580V665H497V499L395 492V532Q395 549 390 556T366 563H218V392H449V290H218V103H379Q397 103 402 110T407 135V185L509 178V0Z" />
<glyph unicode="F" glyph-name="F" horiz-adv-x="543" d="M34 0V81L67 84Q96 87 96 112V577L39 580V665H522V499L420 492V532Q420 549 415 556T391 563H218V386H464V284H218V88L307 85V0H34Z" />
<glyph unicode="G" glyph-name="G" horiz-adv-x="641" d="M564 233V52Q471 -12 333 -12T118 74T40 331Q40 406 59 466T110 565T184 630Q264 677 365 677T555 636V466L453 459V537Q453 552 449 559Q438 578 358 578Q165 578 165 339Q165 87 339 87Q408 87 445 111V260H444L367
263V348H616V268L593 266Q577 264 571 258T564 233Z" />
<glyph unicode="H" glyph-name="H" horiz-adv-x="712" d="M499 117V290H216V88L274 85V0H32V81L65 84Q94 87 94 112V577L37 580V665H279V584L246 581Q230 579 223 573T216 548V393H499V577L442 580V665H684V584L651 581Q622 578 622 549V88L679 85V0H437V81L470
84Q485 86 492 92T499 117Z" />
<glyph unicode="I" glyph-name="I" horiz-adv-x="307" d="M94 117V577L37 580V665H279V584L246 581Q217 578 217 549V88L274 85V0H32V81L65 84Q80 86 87 92T94 117Z" />
<glyph unicode="J" glyph-name="J" horiz-adv-x="474" d="M393 134Q376 -13 196 -13Q102 -13 28 29V204L130 211V132Q130 117 134 110T155 97T207 90T259 111T275 181V576L197 580V665H459V584L426 581Q397 578 397 550V239Q397 168 393 134Z" />
<glyph unicode="K" glyph-name="K" horiz-adv-x="622" d="M94 117V577L37 580V665H277V584L244 581Q215 578 215 549V329L419 577L363 580V665H597V584L564 581Q545 579 524 553L382 379L559 88L612 85V0H356V81L387 84Q407 86 407 100Q407 106 402 116L303 287L215
181V88L272 85V0H32V81L65 84Q80 86 87 92T94 117Z" />
<glyph unicode="L" glyph-name="L" horiz-adv-x="537" d="M507 0H32V81L65 84Q94 87 94 112V577L37 580V665H278V584L245 581Q216 578 216 549V103H382Q396 103 400 110T405 135V205L507 198V0Z" />
<glyph unicode="M" glyph-name="M" horiz-adv-x="834" d="M248 665L418 213H420L591 665H789V584L756 581Q726 578 727 546L752 88L814 85V0H573V81L609 84Q636 86 635 110L616 463H614L460 64H365L213 459H211L191 88L256 85V0H20V81L56 84Q79 86 81 111L108
576L47 580V665H248Z" />
<glyph unicode="N" glyph-name="N" horiz-adv-x="705" d="M32 0V81L68 84Q94 86 94 112V577L37 580V665H217L500 206H502V577L436 580V665H680V584L644 581Q620 579 620 550V0H503L214 466H212V88L277 85V0H32Z" />
<glyph unicode="O" glyph-name="O" horiz-adv-x="664" d="M464 677T544 593T624 337T545 76T330 -13T117 75T40 331Q40 423 67 492T138 600Q227 677 345 677ZM165 336Q165 88 337 88Q429 88 466 164Q500 231 500 328Q500 415 470 488Q453 528 419 551T329 574T235
538T180 451T165 336Z" />
<glyph unicode="P" glyph-name="P" horiz-adv-x="590" d="M32 0V81L65 84Q94 87 94 112V577L37 580V665H323Q435 665 497 613T560 455T489 292T301 233H216V88L312 85V0H32ZM216 330H288Q434 330 434 449Q434 521 397 544T277 568H216V330Z" />
<glyph unicode="Q" glyph-name="Q" horiz-adv-x="664" d="M623 331Q623 202 569 119T411 9V6Q488 2 558 -40Q608 -71 675 -71Q690 -71 706 -69L694 -165Q680 -166 667 -166L568 -149Q505 -127 445 -99Q377 -67 319 -67Q291 -67 263 -73L277 -1Q39 30 39 331Q39
423 66 492T138 600Q226 677 344 677T543 593T623 331ZM164 336Q164 88 336 88Q428 88 466 164Q499 231 499 328Q499 415 468 488Q452 528 418 551T328 574T234 538T179 451T164 336Z" />
<glyph unicode="R" glyph-name="R" horiz-adv-x="626" d="M32 0V81L65 84Q94 87 94 112V577L37 580V665H310Q426 665 488 622T550 481Q550 413 515 369T430 305Q466 292 487 244L559 87L616 85V0H369V81L398 84Q421 87 421 102Q421 108 417 116L370 216Q359 241
346 251T307 262H216V88L281 85V0H32ZM216 357H303Q426 357 426 467Q426 530 394 549T289 568H216V357Z" />
<glyph unicode="S" glyph-name="S" horiz-adv-x="522" d="M241 90Q361 90 361 186Q361 236 308 260Q280 274 236 286T162 310T102 345Q43 389 43 480T106 624T272 677T463 636V486L361 479V537Q361 552 357 559Q346 578 287 578T199 557T170 492Q170 460 194 436Q210
420 241 410T308 388T371 364T429 328Q490 283 490 189T423 41T245 -13T46 28V186L148 193V132Q148 117 152 110T176 97T241 90Z" />
<glyph unicode="T" glyph-name="T" horiz-adv-x="553" d="M218 112V566H140Q117 566 117 535V488L15 495V665H538V495L436 488V535Q436 552 431 559T407 566H339V88L418 85V0H136V81L189 84Q218 87 218 112Z" />
<glyph unicode="U" glyph-name="U" horiz-adv-x="659" d="M201 548V216Q201 146 234 118T330 89T427 120T462 211V577L404 580V665H641V584L608 581Q579 578 579 551V194Q579 97 511 42T323 -13T142 40T80 210V577L22 580V665H264V584L231 581Q215 579 208 573T201 548Z" />
<glyph unicode="V" glyph-name="V" horiz-adv-x="654" d="M201 546L335 143H340L480 576L419 580V665H649V584L616 581Q603 580 597 574T585 551L396 0H266L62 577L5 580V665H263V584L230 581Q199 579 199 557Q199 552 201 546Z" />
<glyph unicode="W" glyph-name="W" horiz-adv-x="885" d="M880 584L847 581Q821 579 814 545L688 0H551L446 445H443L341 0H200L62 577L5 580V665H253V584L220 581Q189 578 189 555Q189 551 190 546L277 160H281L385 612H514L622 158H624L709 576L655 580V665H880V584Z" />
<glyph unicode="X" glyph-name="X" horiz-adv-x="621" d="M521 549L378 356L553 92L616 88V0H338V82L368 85Q387 87 394 98T392 123L302 262L187 88L235 85V0H5V81L36 84Q55 87 74 116L236 348L84 572L29 577V665H294V583L269 580Q248 578 243 566T247 539L314
434L411 577L361 580V665H590V584L559 581Q540 578 521 549Z" />
<glyph unicode="Y" glyph-name="Y" horiz-adv-x="570" d="M222 112V254L52 577L5 580V665H249V584L219 581Q203 580 199 569T202 542L287 368H291L400 576L350 580V665H565V584L535 581Q516 579 501 551L344 254V88L422 85V0H140V81L193 84Q222 86 222 112Z" />
<glyph unicode="Z" glyph-name="Z" horiz-adv-x="533" d="M477 584L172 95H366Q391 95 391 127V197L493 190V0H33V83L335 570H169Q142 570 142 539V499L40 506V665H477V584Z" />
<glyph unicode="[" glyph-name="bracketleft" horiz-adv-x="325" d="M80 -166V714H290V633H190V-85H290V-166H80Z" />
<glyph unicode="\" glyph-name="backslash" horiz-adv-x="440" d="M15 718L118 756L425 -72L322 -109L15 718Z" />
<glyph unicode="]" glyph-name="bracketright" horiz-adv-x="325" d="M245 714V-166H35V-85H135V633H35V714H245Z" />
<glyph unicode="^" glyph-name="asciicircum" horiz-adv-x="553" d="M509 301L408 285L278 552L147 285L49 302L236 674H323L509 301Z" />
<glyph unicode="_" glyph-name="underscore" horiz-adv-x="500" d="M0 -147V-74H500V-147H0Z" />
<glyph unicode="`" glyph-name="grave" horiz-adv-x="500" d="M234 786L350 594L311 561L183 685Q158 708 158 728T187 764L234 786Z" />
<glyph unicode="a" glyph-name="a" horiz-adv-x="567" d="M482 483V111Q482 95 487 89T507 82L539 80V0H380V58L377 59Q327 -13 240 -13Q138 -13 89 52T40 230Q40 366 106 442T304 518Q389 518 482 483ZM366 159V418Q338 431 289 431Q222 431 192 377T162 234Q162
72 266 72Q310 72 338 98T366 159Z" />
<glyph unicode="b" glyph-name="b" horiz-adv-x="556" d="M77 30V604Q77 627 52 628L17 630V713H193V476Q238 518 314 518Q408 518 463 455T518 276Q518 -13 276 -13Q224 -13 167 -1T77 30ZM193 354V95Q231 75 281 75Q395 75 395 260Q395 429 283 429Q247 429
220 408T193 354Z" />
<glyph unicode="c" glyph-name="c" horiz-adv-x="471" d="M154 172T186 125T278 78T398 121L441 44Q370 -14 263 -14T95 53T33 253T103 451T262 518T427 477V347L335 340V388Q335 415 316 421T275 428Q154 428 154 257Q154 172 186 125Z" />
<glyph unicode="d" glyph-name="d" horiz-adv-x="568" d="M284 518Q327 518 366 506V607Q366 629 340 631L297 634V713H483V105Q484 82 508 82L543 80V0H381V59L378 60Q333 -13 242 -13Q128 -13 82 63Q40 132 40 232Q40 362 104 440T284 518ZM366 156V415Q330
431 290 431Q224 431 194 378T163 243Q163 75 271 75Q312 75 339 98T366 156Z" />
<glyph unicode="e" glyph-name="e" horiz-adv-x="484" d="M284 518Q359 518 403 482T447 379Q447 335 428 302T381 249T313 218Q246 198 162 198Q165 145 195 113T287 80T411 124L449 43Q429 25 382 6T273 -13Q151 -13 94 54T37 240T102 438T284 518ZM275 296T306
318T337 372Q337 433 277 433Q221 433 191 389T158 282Q202 283 238 289Z" />
<glyph unicode="f" glyph-name="f" horiz-adv-x="370" d="M96 112V419H10V503H96V541Q96 639 141 682Q183 723 264 723T408 688L379 608Q331 633 289 633T231 613T215 550V503H363V419H215V84L299 80V0H34V76L67 79Q82 81 89 87T96 112Z" />
<glyph unicode="g" glyph-name="g" horiz-adv-x="544" d="M469 -110T414 -162T242 -214T59 -181V-42L154 -34V-82Q154 -109 179 -118T248 -128Q312 -128 338 -90T364 19V74Q316 18 231 18Q179 18 140 38T78 92Q35 160 35 252Q35 383 106 450T295 518Q393 518 480
481V110Q480 25 478 1Q469 -110 414 -162ZM364 204V419Q329 431 284 431Q223 431 191 386T158 264Q158 106 262 106Q305 106 334 132T364 204Z" />
<glyph unicode="h" glyph-name="h" horiz-adv-x="600" d="M94 112V599Q94 615 89 621T69 628L34 630V713H212V444Q264 518 358 518Q434 518 475 475T517 344V83L574 80V0H336V76L369 79Q384 81 391 87T398 112V318Q398 370 382 398T318 426T242 397T213 325V83L270
80V0H32V76L65 79Q80 81 87 87T94 112Z" />
<glyph unicode="i" glyph-name="i" horiz-adv-x="296" d="M214 503V83L271 80V0H33V76L66 79Q95 82 95 111V389Q95 406 90 412T70 418L35 420V503H214ZM67 610T67 642T88 695T143 717T198 696T220 642T199 590T143 569T88 589Z" />
<glyph unicode="j" glyph-name="j" horiz-adv-x="283" d="M208 503V-24Q208 -104 182 -154Q149 -214 48 -214Q-24 -214 -80 -179L-44 -96Q-5 -117 27 -117T74 -97T89 -29V389Q89 405 84 411T64 418L29 420V503H208ZM61 610T61 642T82 695T137 717T192 696T214
642T193 590T137 569T82 589Z" />
<glyph unicode="k" glyph-name="k" horiz-adv-x="556" d="M95 112V599Q95 615 90 621T70 628L35 630V713H213V280Q268 285 309 314T365 390Q368 400 368 406Q368 423 349 423L311 425V503H518V422L470 420Q457 318 382 259L480 83L541 80V0H395L281 208Q248 199
213 194V83H214L271 80V0H33V76L66 79Q81 81 88 87T95 112Z" />
<glyph unicode="l" glyph-name="l" horiz-adv-x="298" d="M212 713V83L269 80V0H31V76L64 79Q93 82 93 111V604Q93 626 68 628L33 630V713H212Z" />
<glyph unicode="m" glyph-name="m" horiz-adv-x="866" d="M27 422V503H196V438Q252 518 349 518T481 438Q537 518 633 518Q705 518 744 475T783 344V83L840 80V0H602V76L635 79Q650 81 656 87T664 111V318Q664 373 652 399T593 426T523 398T498 323V83L553 80V0H317V76L350
79Q365 81 372 87T379 112V318Q379 373 367 399T308 426T237 397T213 325V83L267 80V0H31V76L64 79Q79 81 86 87T93 112H94V388Q94 405 89 411T69 419L27 422Z" />
<glyph unicode="n" glyph-name="n" horiz-adv-x="600" d="M27 423V503H196V438Q222 475 265 496T358 518Q434 518 475 475T517 344V83L574 80V0H336V76L369 79Q384 81 391 87T398 112V318Q398 373 381 399T317 426T241 396T213 325V83L270 80V0H32V76L65 79Q80
81 87 87T94 112V389Q94 419 69 420L27 423Z" />
<glyph unicode="o" glyph-name="o" horiz-adv-x="528" d="M263 73Q372 73 372 249Q372 338 348 384T266 430T181 386T154 266Q154 125 206 89Q229 73 263 73ZM33 252Q33 326 55 380T114 464Q185 518 271 518Q331 518 372 499T437 454T477 380T494 265Q494 127
427 56T256 -15T92 52T33 252Z" />
<glyph unicode="p" glyph-name="p" horiz-adv-x="568" d="M89 -95V389Q89 406 84 412T64 419L22 422V503H191V438Q207 468 249 493T349 518Q530 518 530 264Q530 129 471 57T311 -15Q251 -15 204 14V-124L285 -128V-207H27V-131L60 -128Q75 -126 82 -120T89 -95ZM406
254Q406 421 305 421Q263 421 234 396T204 335V105Q242 80 296 80T378 130T406 254Z" />
<glyph unicode="q" glyph-name="q" horiz-adv-x="551" d="M367 -95V43Q319 -13 242 -13T120 25T57 116T40 230Q40 376 109 447T298 518Q396 518 483 481V-124L541 -127V-207H278V-131L337 -128Q352 -127 359 -120T367 -95ZM366 164V419Q332 431 287 431Q227 431
195 380T163 246Q163 124 212 90Q234 75 273 75T339 98T366 164Z" />
<glyph unicode="r" glyph-name="r" horiz-adv-x="462" d="M95 112V389Q95 405 90 411T70 419L28 422V503H197V428Q215 467 253 492T340 518T435 496V347L342 340V386Q342 406 332 411Q321 416 305 416Q265 416 240 388T214 315V83L301 79V0H33V76L66 79Q81 81
88 87T95 112Z" />
<glyph unicode="s" glyph-name="s" horiz-adv-x="451" d="M295 427Q271 436 237 436T183 421T162 383T169 348T193 326Q218 313 253 304T305 289T347 270T386 242Q421 205 421 147Q421 72 367 30T228 -13Q106 -13 44 18V157L134 164V116Q134 72 218 72T302 133Q302
155 288 169T259 188T226 198T188 208T148 221T100 246Q49 279 49 356T104 476T242 518T408 478V358L318 351V393Q318 418 295 427Z" />
<glyph unicode="t" glyph-name="t" horiz-adv-x="377" d="M144 609H209V503H342L332 419H209V156Q209 112 225 95T274 77T342 98L372 21Q322 -14 245 -14Q200 -14 169 -3T123 23T100 64T91 106T90 152V419H19L29 492Q76 496 100 525T144 609Z" />
<glyph unicode="u" glyph-name="u" horiz-adv-x="591" d="M563 79V0H401V65Q346 -13 239 -13Q84 -13 84 160V391Q84 418 59 419L27 421V503H203V186Q203 133 218 106T280 79T355 108T384 178V389Q384 405 379 411T359 419L327 421V503H503V111Q503 95 508 90T528
82L563 79Z" />
<glyph unicode="v" glyph-name="v" horiz-adv-x="558" d="M337 503H548V425L517 423Q497 421 490 399L361 0H208L68 398Q63 412 58 417T39 423L10 425V503H245V423L184 420L287 91H289L389 420L337 423V503Z" />
<glyph unicode="w" glyph-name="w" horiz-adv-x="795" d="M364 483H461L565 111H567L635 420L584 423V503H785V426L752 424Q732 422 725 400L630 0H486L404 298H401L316 0H169L68 399Q63 413 58 418T39 424L10 426V503H239V423L183 420L252 113H254L364 483Z" />
<glyph unicode="x" glyph-name="x" horiz-adv-x="534" d="M319 106L258 186L175 83L222 80V0H14V79L45 82Q68 85 85 106L200 250L77 420L26 426V503H259V424L230 422Q218 421 215 413T218 396L275 320L352 420L311 423V503H514V425L484 423Q463 422 444 398L334
259L465 85L516 79V0H278V79L309 81Q322 82 324 89T319 106Z" />
<glyph unicode="y" glyph-name="y" horiz-adv-x="573" d="M401 19V95Q346 17 239 17Q84 17 84 190V391Q84 418 59 419L27 421V503H203V216Q203 163 218 136T280 109T355 138T384 208V389Q384 406 379 412T359 419L327 421V503H503V19Q503 -102 445 -158T268 -214T83
-181V-42L178 -34V-82Q178 -109 203 -118T272 -128Q401 -128 401 19Z" />
<glyph unicode="z" glyph-name="z" horiz-adv-x="483" d="M448 0H40V76L297 414H171Q150 414 145 406T139 380V345L45 352V503H443V435L183 90H325Q354 90 354 124V166L448 159V0Z" />
<glyph unicode="{" glyph-name="braceleft" horiz-adv-x="340" d="M205 570L214 407Q214 356 199 326T148 281Q186 268 200 242T214 160L203 -16Q203 -55 212 -73T247 -91T292 -86L302 -162Q260 -171 223 -171Q162 -171 129 -137T95 -44L106 147Q106 189 95 214T43
244V318Q84 323 95 347T107 421L99 590Q99 651 131 685T225 719Q265 719 305 709L295 635Q267 640 255 640Q224 640 215 625T205 570Z" />
<glyph unicode="|" glyph-name="bar" horiz-adv-x="274" d="M85 -88V747H189V-88H85Z" />
<glyph unicode="}" glyph-name="braceright" horiz-adv-x="340" d="M137 -16L126 160Q126 215 140 241T192 281Q156 296 141 326T126 407L135 570Q135 609 126 624T85 640Q73 640 45 635L35 709Q75 719 115 719Q177 719 209 685T241 590L233 421Q233 371 244 347T297
318V244Q257 239 246 214T234 147L245 -44Q245 -103 212 -137T117 -171Q80 -171 38 -162L48 -86Q68 -91 93 -91T127 -73T137 -16Z" />
<glyph unicode="~" glyph-name="asciitilde" horiz-adv-x="598" d="M405 218Q359 218 293 254T203 291Q162 291 119 226L47 282Q110 388 193 388Q236 388 301 350T397 312Q442 312 478 376L551 322Q502 218 405 218Z" />
<glyph unicode="&#xa0;" glyph-name="uni00A0" horiz-adv-x="207" />
<glyph unicode="&#xa1;" glyph-name="exclamdown" horiz-adv-x="277" d="M193 -28V-147Q193 -194 137 -194T81 -145V-28L101 321H172L193 -28ZM170 518T188 499T207 452T188 405T139 385T89 403T70 450T88 498T138 518Z" />
<glyph unicode="&#xa2;" glyph-name="cent" horiz-adv-x="535" d="M270 -60V50Q179 64 127 128T75 307T130 486T270 569V685H345V573Q416 569 484 533V403L392 396V444Q392 471 371 478Q356 482 345 483V139Q396 142 450 182L493 105Q430 55 345 48V-60H270ZM270
472Q196 437 196 312T270 152V472Z" />
<glyph unicode="&#xa3;" glyph-name="sterling" horiz-adv-x="552" d="M116 210L122 289H38L48 373H128L134 459Q148 657 353 657Q446 657 523 616V476L421 469V516Q421 531 418 538T397 552T354 559Q303 559 279 534T250 450L244 373H419L409 290H239L236 249Q230
165 149 103L151 99Q205 119 233 119T315 109T410 99T500 113L487 6Q439 -3 395 -3T277 9T151 22T32 -8V85Q109 121 116 210Z" />
<glyph unicode="&#xa5;" glyph-name="yen" horiz-adv-x="550" d="M59 296V372H172L52 577L5 580V665H249V584L219 581Q203 580 199 569T202 542L277 388H281L380 576L330 580V665H545V584L515 581Q496 579 481 551L374 372H487V296H334V231H487V155H334V88L412
85V0H130V81L183 84Q212 86 212 112V155H59V231H212V296H59Z" />
<glyph unicode="&#xa6;" glyph-name="brokenbar" horiz-adv-x="275" d="M85 -88V286H190V-88H85ZM85 403V747H190V403H85Z" />
<glyph unicode="&#xa7;" glyph-name="section" horiz-adv-x="552" d="M407 35Q420 1 420 -32T412 -91T386 -144T329 -188T239 -205Q156 -205 81 -166V-34L173 -27V-75Q173 -103 192 -109T240 -115T290 -97T311 -47Q311 -26 304 -14T293 5T279 20T264 34T244 47T224
60Q193 79 180 86Q109 128 76 168T43 268Q43 355 127 427Q114 456 114 491T122 553T148 606T205 650T295 667Q374 667 453 626V496L361 489V537Q361 565 342 571T294 577T244 559T223 509Q223 460 289 416Q298 410 322 396Q415 340 452 295T489 190Q489 105 407
35ZM226 193T242 183T301 144T352 107Q381 133 381 173Q381 193 376 202T369 217T358 229T347 240T331 252T314 265T292 279Q211 330 182 355Q153 328 153 289Q153 269 158 260T165 245T176 233T187 222T203 210T220 197Z" />
<glyph unicode="&#xa8;" glyph-name="dieresis" horiz-adv-x="500" d="M321 581T302 599T283 646T302 694T352 714T401 695T421 647T402 600T352 581ZM121 581T102 599T83 646T102 694T152 714T201 695T221 647T202 600T152 581Z" />
<glyph unicode="&#xa9;" glyph-name="copyright" horiz-adv-x="814" d="M555 676T654 576T753 329T654 81T400 -20T153 76T60 323T156 575T404 676ZM520 52T597 130T674 328T597 525T403 604T213 525T139 323T212 127T403 52ZM409 198Q454 198 505 240L545 186Q491
130 406 130T277 183T232 331Q232 386 248 427T292 489Q345 530 405 530Q500 530 555 455L499 411Q453 461 409 461T339 431T312 332Q312 198 409 198Z" />
<glyph unicode="&#xaa;" glyph-name="ordfeminine" horiz-adv-x="414" d="M280 264V302H276Q239 256 177 256T81 302T48 428T95 558T230 610Q293 610 358 586V342Q358 331 362 327T379 322L396 321V264H280ZM266 369V533Q244 541 220 541Q180 541 160 510T140
429Q140 324 206 324Q232 324 249 338T266 369Z" />
<glyph unicode="&#xab;" glyph-name="guillemotleft" horiz-adv-x="530" d="M293 406L173 263L286 103L239 61L65 222Q47 239 47 265T76 315L246 451L293 406ZM497 406L377 263L490 103L443 61L269 222Q251 239 251 265T280 315L450 451L497 406Z" />
<glyph unicode="&#xac;" glyph-name="logicalnot" horiz-adv-x="535" d="M385 171V315H52V412H481V171H385Z" />
<glyph unicode="&#xad;" glyph-name="uni00AD" horiz-adv-x="322" d="M42 244V337H279V244H42Z" />
<glyph unicode="&#xae;" glyph-name="registered" horiz-adv-x="463" d="M287 459L323 378H273L242 448Q236 462 226 462H207V378H162V589H238Q308 589 308 532Q308 490 274 474Q282 470 287 459ZM207 498H223Q259 498 259 528Q259 553 223 553H207V498ZM318 677T375
622T433 482T376 342T229 286T84 340T30 480T86 621T230 677ZM296 331T338 372T380 479T337 588T229 631T123 589T83 481T124 373T230 331Z" />
<glyph unicode="&#xaf;" glyph-name="overscore" horiz-adv-x="500" d="M104 610V694H391V610H104Z" />
<glyph unicode="&#xb0;" glyph-name="degree" horiz-adv-x="298" d="M94 481T65 513T35 596T67 680T150 714T232 682T263 599T231 515T147 481ZM97 596Q97 570 110 554T149 537T187 553T200 596Q200 657 149 657T97 596Z" />
<glyph unicode="&#xb1;" glyph-name="plusminus" horiz-adv-x="535" d="M214 364V520H316V364H470V266H316V132H470V35H65V132H214V266H65V364H214Z" />
<glyph unicode="&#xb2;" glyph-name="twosuperior" horiz-adv-x="337" d="M23 700Q95 737 164 737T265 709T297 643T284 578T241 517L152 416H310V341H35V399L159 543Q203 595 203 619Q203 665 156 665Q129 665 116 660T101 649T99 632V587L23 591V700Z" />
<glyph unicode="&#xb3;" glyph-name="threesuperior" horiz-adv-x="337" d="M98 571H163Q201 593 201 626Q201 667 151 667Q130 667 116 663T102 640V607L32 612V707Q94 737 159 737T256 711T288 641Q288 583 231 544Q295 524 295 459Q295 404 258 370T147 336T24
367L47 432Q97 406 145 406Q208 406 208 453Q208 480 189 492T124 505H92L98 571Z" />
<glyph unicode="&#xb4;" glyph-name="acute" horiz-adv-x="500" d="M148 594L264 786L311 764Q340 748 340 728T315 685L187 561L148 594Z" />
<glyph unicode="&#xb5;" glyph-name="mu" horiz-adv-x="584" d="M504 503V103Q504 70 530 70Q544 70 569 82L583 12Q540 -12 492 -12Q417 -12 413 69Q397 32 362 9T284 -14Q214 -14 181 35V-216H74V503H186V214Q186 144 208 107T282 70T362 113T390 231V503H504Z" />
<glyph unicode="&#xb6;" glyph-name="paragraph" horiz-adv-x="549" d="M457 549V81Q457 -50 406 -113T212 -205L187 -107Q275 -86 308 -48T342 62V579H270V215Q175 217 113 271T51 439T117 608T292 665H519V584L486 581Q457 578 457 549Z" />
<glyph unicode="&#xb7;" glyph-name="middot" horiz-adv-x="309" d="M122 239T104 257T85 306T103 356T154 375T205 357T224 308T206 259T155 239Z" />
<glyph unicode="&#xb8;" glyph-name="cedilla" horiz-adv-x="500" d="M212 3H269L252 -63Q294 -66 319 -87T345 -151T309 -218T223 -242T133 -224L149 -172Q188 -185 216 -185Q264 -185 264 -148T176 -110L212 3Z" />
<glyph unicode="&#xb9;" glyph-name="onesuperior" horiz-adv-x="316" d="M61 407L120 411Q136 412 136 427V639L55 603L26 660L151 731H224V411L294 408V341H61V407Z" />
<glyph unicode="&#xba;" glyph-name="ordmasculine" horiz-adv-x="406" d="M136 442Q136 331 202 331T269 432Q269 485 254 511T201 537Q136 537 136 442ZM42 430Q42 566 150 602Q177 611 206 611Q270 611 316 573T363 444T318 305T199 256T83 302T42 430Z" />
<glyph unicode="&#xbb;" glyph-name="guillemotright" horiz-adv-x="530" d="M154 263L34 408L81 453L251 317Q280 294 280 267T260 221L88 63L41 105L154 263ZM358 263L238 408L285 453L455 317Q484 294 484 267T464 221L292 63L245 105L358 263Z" />
<glyph unicode="&#xbc;" glyph-name="onequarter" horiz-adv-x="825" d="M62 327L121 331Q137 332 137 347V559L56 523L27 580L152 651H225V331L295 328V261H62V327ZM284 -41L208 -6L532 686L610 653L284 -41ZM624 86V113H472V171L584 403L653 371L561 182H629L658
258H711V182H772V111H711V70L782 67V0H549V66L608 70Q624 71 624 86Z" />
<glyph unicode="&#xbd;" glyph-name="onehalf" horiz-adv-x="825" d="M64 327L123 331Q139 332 139 347V559L58 523L29 580L154 651H227V331L297 328V261H64V327ZM277 -41L201 -6L525 686L603 653L277 -41ZM497 359Q569 396 638 396T739 368T771 302T758 237T715
176L626 75H784V0H509V58L633 202Q677 254 677 278Q677 324 630 324Q603 324 590 319T575 308T573 291V246L497 250V359Z" />
<glyph unicode="&#xbe;" glyph-name="threequarters" horiz-adv-x="825" d="M124 491H189Q227 513 227 546Q227 587 177 587Q156 587 142 583T128 560V527L58 532V627Q120 657 185 657T282 631T314 561Q314 503 257 464Q321 444 321 379Q321 324 284 290T173 256T50
287L73 352Q123 326 171 326Q234 326 234 373Q234 400 215 412T150 425H118L124 491ZM294 -41L218 -6L542 686L620 653L294 -41ZM635 86V113H483V171L595 403L664 371L572 182H640L669 258H722V182H783V111H722V70L793 67V0H560V66L619 70Q635 71 635 86Z" />
<glyph unicode="&#xbf;" glyph-name="questiondown" horiz-adv-x="433" d="M164 -37Q164 -100 233 -100Q256 -100 276 -95T299 -81T303 -57V-4L405 -11V-148Q309 -194 222 -194T91 -153T48 -47T74 56T143 124T196 169T208 211L213 321H309L314 216Q314 208 314
201Q314 157 298 128Q280 96 219 52Q186 28 181 20T172 2Q164 -12 164 -37ZM292 518T310 499T329 452T310 405T261 385T211 403T192 450T210 498T260 518Z" />
<glyph unicode="&#xc0;" glyph-name="Agrave" horiz-adv-x="662" d="M68 112L229 578L166 584V665H395L599 88H600L657 85V0H399V81L437 84Q454 86 460 92T461 114L440 176H206L176 88L236 85V0H5V81L38 84Q59 86 68 112ZM323 553L230 268H416L326 553H323ZM237
907L399 750L369 709L214 796Q178 816 178 836T197 874L237 907Z" />
<glyph unicode="&#xc1;" glyph-name="Aacute" horiz-adv-x="662" d="M68 112L229 578L166 584V665H395L599 88H600L657 85V0H399V81L437 84Q454 86 460 92T461 114L440 176H206L176 88L236 85V0H5V81L38 84Q59 86 68 112ZM323 553L230 268H416L326 553H323ZM221
750L383 907L423 874Q441 857 441 841Q441 816 406 796L251 709L221 750Z" />
<glyph unicode="&#xc2;" glyph-name="Acircumflex" horiz-adv-x="662" d="M68 112L229 578L166 584V665H395L599 88H600L657 85V0H399V81L437 84Q454 86 460 92T461 114L440 176H206L176 88L236 85V0H5V81L38 84Q59 86 68 112ZM323 553L230 268H416L326 553H323ZM181
708L140 742L258 870Q279 893 300 893L340 872L460 743L419 708L299 794L181 708Z" />
<glyph unicode="&#xc3;" glyph-name="Atilde" horiz-adv-x="662" d="M68 112L229 578L166 584V665H395L599 88H600L657 85V0H399V81L437 84Q454 86 460 92T461 114L440 176H206L176 88L236 85V0H5V81L38 84Q59 86 68 112ZM323 553L230 268H416L326 553H323ZM184
728L136 763Q172 842 238 842Q262 842 308 828T375 814T416 846L470 817Q437 730 367 730Q346 730 302 743T240 757T211 752T184 728Z" />
<glyph unicode="&#xc4;" glyph-name="Adieresis" horiz-adv-x="662" d="M68 112L229 578L166 584V665H395L599 88H600L657 85V0H399V81L437 84Q454 86 460 92T461 114L440 176H206L176 88L236 85V0H5V81L38 84Q59 86 68 112ZM323 553L230 268H416L326 553H323ZM372
721T353 739T334 786T353 834T403 854T452 835T472 787T453 740T403 721ZM172 721T153 739T134 786T153 834T203 854T252 835T272 787T253 740T203 721Z" />
<glyph unicode="&#xc5;" glyph-name="Aring" horiz-adv-x="662" d="M68 112L229 578L166 584V665H395L599 88H600L657 85V0H399V81L437 84Q454 86 460 92T461 114L440 176H206L176 88L236 85V0H5V81L38 84Q59 86 68 112ZM323 553L230 268H416L326 553H323ZM259
700T235 726T210 793T236 860T305 886T373 861T398 795T372 728T303 700ZM341 834T305 834T269 793T305 751Q322 751 331 763T341 793Q341 834 305 834Z" />
<glyph unicode="&#xc6;" glyph-name="AE" horiz-adv-x="854" d="M63 112L224 578L161 584V665H802V499L700 492V532Q700 549 695 556T671 563H446L505 392H754V290H523L589 103H684Q702 103 707 110T712 135V185L814 178V0H394V81L432 84Q449 86 455 92T456 114L435
176H201L171 88L231 85V0H0V81L33 84Q54 86 63 112ZM318 553L225 268H411L321 553H318Z" />
<glyph unicode="&#xc7;" glyph-name="Ccedilla" horiz-adv-x="602" d="M436 559Q425 578 354 578Q261 578 213 515T165 333Q165 86 350 86Q353 86 376 86T421 92T446 106T450 128V208L552 201V28Q474 -13 355 -13L342 -63Q384 -66 409 -87T435 -151T399 -218T313
-242T223 -224L239 -172Q278 -185 306 -185Q354 -185 354 -148T266 -110L298 -9Q172 5 106 90T40 329Q40 423 67 493T140 602Q230 677 354 677Q454 677 542 636V466L440 459V537Q440 552 436 559Z" />
<glyph unicode="&#xc8;" glyph-name="Egrave" horiz-adv-x="549" d="M509 0H34V81L67 84Q96 87 96 112V577L39 580V665H497V499L395 492V532Q395 549 390 556T366 563H218V392H449V290H218V103H379Q397 103 402 110T407 135V185L509 178V0ZM214 907L376 750L346
709L191 796Q155 816 155 836T174 874L214 907Z" />
<glyph unicode="&#xc9;" glyph-name="Eacute" horiz-adv-x="549" d="M509 0H34V81L67 84Q96 87 96 112V577L39 580V665H497V499L395 492V532Q395 549 390 556T366 563H218V392H449V290H218V103H379Q397 103 402 110T407 135V185L509 178V0ZM184 750L346 907L386
874Q404 857 404 841Q404 816 369 796L214 709L184 750Z" />
<glyph unicode="&#xca;" glyph-name="Ecircumflex" horiz-adv-x="549" d="M509 0H34V81L67 84Q96 87 96 112V577L39 580V665H497V499L395 492V532Q395 549 390 556T366 563H218V392H449V290H218V103H379Q397 103 402 110T407 135V185L509 178V0ZM155 708L114 742L232
870Q253 893 274 893L314 872L434 743L393 708L273 794L155 708Z" />
<glyph unicode="&#xcb;" glyph-name="Edieresis" horiz-adv-x="549" d="M509 0H34V81L67 84Q96 87 96 112V577L39 580V665H497V499L395 492V532Q395 549 390 556T366 563H218V392H449V290H218V103H379Q397 103 402 110T407 135V185L509 178V0ZM345 721T326 739T307
786T326 834T376 854T425 835T445 787T426 740T376 721ZM145 721T126 739T107 786T126 834T176 854T225 835T245 787T226 740T176 721Z" />
<glyph unicode="&#xcc;" glyph-name="Igrave" horiz-adv-x="307" d="M94 117V577L37 580V665H279V584L246 581Q217 578 217 549V88L274 85V0H32V81L65 84Q80 86 87 92T94 117ZM86 907L248 750L218 709L63 796Q27 816 27 836T46 874L86 907Z" />
<glyph unicode="&#xcd;" glyph-name="Iacute" horiz-adv-x="307" d="M94 117V577L37 580V665H279V584L246 581Q217 578 217 549V88L274 85V0H32V81L65 84Q80 86 87 92T94 117ZM64 750L226 907L266 874Q284 857 284 841Q284 816 249 796L94 709L64 750Z" />
<glyph unicode="&#xce;" glyph-name="Icircumflex" horiz-adv-x="307" d="M94 117V577L37 580V665H279V584L246 581Q217 578 217 549V88L274 85V0H32V81L65 84Q80 86 87 92T94 117ZM38 708L-3 742L115 870Q136 893 157 893L197 872L317 743L276 708L156 794L38 708Z" />
<glyph unicode="&#xcf;" glyph-name="Idieresis" horiz-adv-x="307" d="M94 117V577L37 580V665H279V584L246 581Q217 578 217 549V88L274 85V0H32V81L65 84Q80 86 87 92T94 117ZM228 721T209 739T190 786T209 834T259 854T308 835T328 787T309 740T259 721ZM28
721T9 739T-10 786T9 834T59 854T108 835T128 787T109 740T59 721Z" />
<glyph unicode="&#xd0;" glyph-name="Eth" horiz-adv-x="679" d="M48 0V81L81 84Q110 87 110 112V290H36V380H110V577L53 580V665H327Q474 665 556 587T639 356Q639 261 614 191T546 80Q460 0 332 0H48ZM232 568V380H401V290H232V96H334Q420 96 468 158T516 338Q516
568 321 568H232Z" />
<glyph unicode="&#xd1;" glyph-name="Ntilde" horiz-adv-x="705" d="M32 0V81L68 84Q94 86 94 112V577L37 580V665H217L500 206H502V577L436 580V665H680V584L644 581Q620 579 620 550V0H503L214 466H212V88L277 85V0H32ZM222 728L174 763Q210 842 276 842Q300
842 346 828T413 814T454 846L508 817Q475 730 405 730Q384 730 340 743T278 757T249 752T222 728Z" />
<glyph unicode="&#xd2;" glyph-name="Ograve" horiz-adv-x="664" d="M464 677T544 593T624 337T545 76T330 -13T117 75T40 331Q40 423 67 492T138 600Q227 677 345 677ZM165 336Q165 88 337 88Q429 88 466 164Q500 231 500 328Q500 415 470 488Q453 528 419 551T329
574T235 538T180 451T165 336ZM282 907L444 750L414 709L259 796Q223 816 223 836T242 874L282 907Z" />
<glyph unicode="&#xd3;" glyph-name="Oacute" horiz-adv-x="664" d="M464 677T544 593T624 337T545 76T330 -13T117 75T40 331Q40 423 67 492T138 600Q227 677 345 677ZM165 336Q165 88 337 88Q429 88 466 164Q500 231 500 328Q500 415 470 488Q453 528 419 551T329
574T235 538T180 451T165 336ZM237 750L399 907L439 874Q457 857 457 841Q457 816 422 796L267 709L237 750Z" />
<glyph unicode="&#xd4;" glyph-name="Ocircumflex" horiz-adv-x="664" d="M464 677T544 593T624 337T545 76T330 -13T117 75T40 331Q40 423 67 492T138 600Q227 677 345 677ZM165 336Q165 88 337 88Q429 88 466 164Q500 231 500 328Q500 415 470 488Q453 528 419
551T329 574T235 538T180 451T165 336ZM220 708L179 742L297 870Q318 893 339 893L379 872L499 743L458 708L338 794L220 708Z" />
<glyph unicode="&#xd5;" glyph-name="Otilde" horiz-adv-x="664" d="M464 677T544 593T624 337T545 76T330 -13T117 75T40 331Q40 423 67 492T138 600Q227 677 345 677ZM165 336Q165 88 337 88Q429 88 466 164Q500 231 500 328Q500 415 470 488Q453 528 419 551T329
574T235 538T180 451T165 336ZM220 728L172 763Q208 842 274 842Q298 842 344 828T411 814T452 846L506 817Q473 730 403 730Q382 730 338 743T276 757T247 752T220 728Z" />
<glyph unicode="&#xd6;" glyph-name="Odieresis" horiz-adv-x="664" d="M464 677T544 593T624 337T545 76T330 -13T117 75T40 331Q40 423 67 492T138 600Q227 677 345 677ZM165 336Q165 88 337 88Q429 88 466 164Q500 231 500 328Q500 415 470 488Q453 528 419
551T329 574T235 538T180 451T165 336ZM407 721T388 739T369 786T388 834T438 854T487 835T507 787T488 740T438 721ZM207 721T188 739T169 786T188 834T238 854T287 835T307 787T288 740T238 721Z" />
<glyph unicode="&#xd7;" glyph-name="multiply" horiz-adv-x="535" d="M197 314L83 428L155 500L269 386L381 498L450 429L338 316L451 203L379 131L266 244L153 131L83 200L197 314Z" />
<glyph unicode="&#xd8;" glyph-name="Oslash" horiz-adv-x="664" d="M528 608Q624 519 624 342T545 76T330 -13Q274 -13 223 3L173 -100L86 -58L139 52Q40 140 40 331Q40 423 67 492T138 600Q227 677 341 677Q395 677 444 660L488 751L577 710L528 608ZM165 336Q165
226 199 164L391 564Q363 574 335 574Q274 574 235 538T180 451T165 336ZM466 495L275 98Q301 88 342 88T416 108T466 164Q500 231 500 330T466 495Z" />
<glyph unicode="&#xd9;" glyph-name="Ugrave" horiz-adv-x="659" d="M201 548V216Q201 146 234 118T330 89T427 120T462 211V577L404 580V665H641V584L608 581Q579 578 579 551V194Q579 97 511 42T323 -13T142 40T80 210V577L22 580V665H264V584L231 581Q215 579
208 573T201 548ZM257 907L419 750L389 709L234 796Q198 816 198 836T217 874L257 907Z" />
<glyph unicode="&#xda;" glyph-name="Uacute" horiz-adv-x="659" d="M201 548V216Q201 146 234 118T330 89T427 120T462 211V577L404 580V665H641V584L608 581Q579 578 579 551V194Q579 97 511 42T323 -13T142 40T80 210V577L22 580V665H264V584L231 581Q215 579
208 573T201 548ZM243 750L405 907L445 874Q463 857 463 841Q463 816 428 796L273 709L243 750Z" />
<glyph unicode="&#xdb;" glyph-name="Ucircumflex" horiz-adv-x="659" d="M201 548V216Q201 146 234 118T330 89T427 120T462 211V577L404 580V665H641V584L608 581Q579 578 579 551V194Q579 97 511 42T323 -13T142 40T80 210V577L22 580V665H264V584L231 581Q215
579 208 573T201 548ZM209 708L168 742L286 870Q307 893 328 893L368 872L488 743L447 708L327 794L209 708Z" />
<glyph unicode="&#xdc;" glyph-name="Udieresis" horiz-adv-x="659" d="M201 548V216Q201 146 234 118T330 89T427 120T462 211V577L404 580V665H641V584L608 581Q579 578 579 551V194Q579 97 511 42T323 -13T142 40T80 210V577L22 580V665H264V584L231 581Q215
579 208 573T201 548ZM407 721T388 739T369 786T388 834T438 854T487 835T507 787T488 740T438 721ZM207 721T188 739T169 786T188 834T238 854T287 835T307 787T288 740T238 721Z" />
<glyph unicode="&#xdd;" glyph-name="Yacute" horiz-adv-x="570" d="M222 112V254L52 577L5 580V665H249V584L219 581Q203 580 199 569T202 542L287 368H291L400 576L350 580V665H565V584L535 581Q516 579 501 551L344 254V88L422 85V0H140V81L193 84Q222 86 222
112ZM191 750L353 907L393 874Q411 857 411 841Q411 816 376 796L221 709L191 750Z" />
<glyph unicode="&#xde;" glyph-name="Thorn" horiz-adv-x="590" d="M216 227H288Q434 227 434 336Q434 402 397 423T277 445H216V227ZM216 559V542H323Q435 542 497 492T560 342T489 186T301 130H216V84L312 81V0H32V78L65 81Q94 84 94 109V579L32 583V665H309V590L245
587Q216 585 216 559Z" />
<glyph unicode="&#xdf;" glyph-name="germandbls" horiz-adv-x="625" d="M90 112V510Q90 713 330 713Q439 713 492 673T546 568Q546 514 500 471Q480 453 461 437Q415 398 415 370Q415 338 478 300Q505 285 531 267T576 217T595 146Q595 70 545 29T409 -13T255
18V157L345 164V116Q345 100 348 93T367 80T412 73T459 91T477 136T459 185T416 219T366 249T322 290T304 350T324 414T368 463T413 507T433 556Q433 623 321 623T209 516V0H28V76L61 79Q76 81 83 87T90 112Z" />
<glyph unicode="&#xe0;" glyph-name="agrave" horiz-adv-x="567" d="M482 483V111Q482 95 487 89T507 82L539 80V0H380V58L377 59Q327 -13 240 -13Q138 -13 89 52T40 230Q40 366 106 442T304 518Q389 518 482 483ZM366 159V418Q338 431 289 431Q222 431 192 377T162
234Q162 72 266 72Q310 72 338 98T366 159ZM253 786L369 594L330 561L202 685Q177 708 177 728T206 764L253 786Z" />
<glyph unicode="&#xe1;" glyph-name="aacute" horiz-adv-x="567" d="M482 483V111Q482 95 487 89T507 82L539 80V0H380V58L377 59Q327 -13 240 -13Q138 -13 89 52T40 230Q40 366 106 442T304 518Q389 518 482 483ZM366 159V418Q338 431 289 431Q222 431 192 377T162
234Q162 72 266 72Q310 72 338 98T366 159ZM214 594L330 786L377 764Q406 748 406 728T381 685L253 561L214 594Z" />
<glyph unicode="&#xe2;" glyph-name="acircumflex" horiz-adv-x="567" d="M482 483V111Q482 95 487 89T507 82L539 80V0H380V58L377 59Q327 -13 240 -13Q138 -13 89 52T40 230Q40 366 106 442T304 518Q389 518 482 483ZM366 159V418Q338 431 289 431Q222 431 192
377T162 234Q162 72 266 72Q310 72 338 98T366 159ZM174 562L133 594L248 745Q268 771 291 771Q316 771 337 743L450 595L409 561L291 665L174 562Z" />
<glyph unicode="&#xe3;" glyph-name="atilde" horiz-adv-x="567" d="M482 483V111Q482 95 487 89T507 82L539 80V0H380V58L377 59Q327 -13 240 -13Q138 -13 89 52T40 230Q40 366 106 442T304 518Q389 518 482 483ZM366 159V418Q338 431 289 431Q222 431 192 377T162
234Q162 72 266 72Q310 72 338 98T366 159ZM175 596L127 631Q163 710 229 710Q253 710 299 696T366 682T407 714L461 685Q428 598 358 598Q336 598 292 611T231 625T202 620T175 596Z" />
<glyph unicode="&#xe4;" glyph-name="adieresis" horiz-adv-x="567" d="M482 483V111Q482 95 487 89T507 82L539 80V0H380V58L377 59Q327 -13 240 -13Q138 -13 89 52T40 230Q40 366 106 442T304 518Q389 518 482 483ZM366 159V418Q338 431 289 431Q222 431 192
377T162 234Q162 72 266 72Q310 72 338 98T366 159ZM359 581T340 599T321 646T340 694T390 714T439 695T459 647T440 600T390 581ZM159 581T140 599T121 646T140 694T190 714T239 695T259 647T240 600T190 581Z" />
<glyph unicode="&#xe5;" glyph-name="aring" horiz-adv-x="567" d="M482 483V111Q482 95 487 89T507 82L539 80V0H380V58L377 59Q327 -13 240 -13Q138 -13 89 52T40 230Q40 366 106 442T304 518Q389 518 482 483ZM366 159V418Q338 431 289 431Q222 431 192 377T162
234Q162 72 266 72Q310 72 338 98T366 159ZM241 564T217 590T192 657T218 724T287 750T355 725T380 659T354 592T285 564ZM323 698T287 698T251 657T287 615Q304 615 313 627T323 657Q323 698 287 698Z" />
<glyph unicode="&#xe6;" glyph-name="ae" horiz-adv-x="765" d="M442 484Q495 518 568 518T684 482T728 379Q728 200 443 198Q446 143 477 111T567 79T692 124L730 43Q707 24 660 6T550 -13Q446 -13 392 41Q326 -13 244 -13Q136 -13 88 54T40 244T107 442T299
518Q372 518 442 484ZM287 431Q224 431 193 378T162 242T186 115T269 72Q312 72 344 104Q318 159 318 250T369 416Q332 431 287 431ZM618 348T618 375T602 417T559 433Q503 433 473 388T439 281Q493 281 535 294T598 328Z" />
<glyph unicode="&#xe7;" glyph-name="ccedilla" horiz-adv-x="471" d="M154 172T186 125T278 78T398 121L441 44Q378 -9 284 -13L272 -63Q314 -66 339 -87T365 -151T329 -218T243 -242T153 -224L169 -172Q208 -185 236 -185Q284 -185 284 -148T196 -110L227 -11Q134
0 84 66T33 245Q33 385 103 451T262 518T427 477V347L335 340V388Q335 415 316 421T275 428Q154 428 154 257Q154 172 186 125Z" />
<glyph unicode="&#xe8;" glyph-name="egrave" horiz-adv-x="484" d="M284 518Q359 518 403 482T447 379Q447 335 428 302T381 249T313 218Q246 198 162 198Q165 145 195 113T287 80T411 124L449 43Q429 25 382 6T273 -13Q151 -13 94 54T37 240T102 438T284 518ZM275
296T306 318T337 372Q337 433 277 433Q221 433 191 389T158 282Q202 283 238 289ZM476 786L592 594L553 561L425 685Q400 708 400 728T429 764L476 786Z" />
<glyph unicode="&#xe9;" glyph-name="eacute" horiz-adv-x="484" d="M284 518Q359 518 403 482T447 379Q447 335 428 302T381 249T313 218Q246 198 162 198Q165 145 195 113T287 80T411 124L449 43Q429 25 382 6T273 -13Q151 -13 94 54T37 240T102 438T284 518ZM275
296T306 318T337 372Q337 433 277 433Q221 433 191 389T158 282Q202 283 238 289ZM173 594L289 786L336 764Q365 748 365 728T340 685L212 561L173 594Z" />
<glyph unicode="&#xea;" glyph-name="ecircumflex" horiz-adv-x="484" d="M284 518Q359 518 403 482T447 379Q447 335 428 302T381 249T313 218Q246 198 162 198Q165 145 195 113T287 80T411 124L449 43Q429 25 382 6T273 -13Q151 -13 94 54T37 240T102 438T284
518ZM275 296T306 318T337 372Q337 433 277 433Q221 433 191 389T158 282Q202 283 238 289ZM145 562L104 594L219 745Q239 771 262 771Q287 771 308 743L421 595L380 561L262 665L145 562Z" />
<glyph unicode="&#xeb;" glyph-name="edieresis" horiz-adv-x="484" d="M284 518Q359 518 403 482T447 379Q447 335 428 302T381 249Q306 198 162 198Q165 145 195 113T287 80T411 124L449 43Q429 25 382 6T273 -13Q151 -13 94 54T37 240T102 438T284 518ZM277
433Q221 433 191 389T158 282Q202 283 238 289T306 318T337 372Q337 433 277 433ZM329 581T310 599T291 646T310 694T360 714T409 695T429 647T410 600T360 581ZM129 581T110 599T91 646T110 694T160 714T209 695T229 647T210 600T160 581Z" />
<glyph unicode="&#xec;" glyph-name="igrave" horiz-adv-x="296" d="M214 503V83L271 80V0H33V76L66 79Q95 82 95 111V389Q95 406 90 412T70 418L35 420V503H214ZM96 786L212 594L173 561L45 685Q20 708 20 728T49 764L96 786Z" />
<glyph unicode="&#xed;" glyph-name="iacute" horiz-adv-x="296" d="M214 503V83L271 80V0H33V76L66 79Q95 82 95 111V389Q95 406 90 412T70 418L35 420V503H214ZM82 594L198 786L245 764Q274 748 274 728T249 685L121 561L82 594Z" />
<glyph unicode="&#xee;" glyph-name="icircumflex" horiz-adv-x="296" d="M214 503V83L271 80V0H33V76L66 79Q95 82 95 111V389Q95 406 90 412T70 418L35 420V503H214ZM264 562L223 594L338 745Q358 771 381 771Q406 771 427 743L540 595L499 561L381 665L264 562Z" />
<glyph unicode="&#xef;" glyph-name="idieresis" horiz-adv-x="296" d="M214 503V83L271 80V0H33V76L66 79Q95 82 95 111V389Q95 406 90 412T70 418L35 420V503H214ZM194 581T175 599T156 646T175 694T225 714T274 695T294 647T275 600T225 581ZM-6 581T-25 599T-44
646T-25 694T25 714T74 695T94 647T75 600T25 581Z" />
<glyph unicode="&#xf0;" glyph-name="eth" horiz-adv-x="512" d="M202 477L156 542L222 587Q178 614 122 624L146 717Q246 704 317 652L401 709L446 644L379 597Q478 474 478 276Q478 145 421 66T249 -14T82 47T30 210T84 379T233 445Q298 445 347 413Q328 483
285 534L202 477ZM153 213Q153 150 177 116T252 81T328 130T355 261Q355 302 354 316Q309 353 250 353Q153 353 153 213Z" />
<glyph unicode="&#xf1;" glyph-name="ntilde" horiz-adv-x="600" d="M27 423V503H196V438Q222 475 265 496T358 518Q434 518 475 475T517 344V83L574 80V0H336V76L369 79Q384 81 391 87T398 112V318Q398 373 381 399T317 426T241 396T213 325V83L270 80V0H32V76L65
79Q80 81 87 87T94 112V389Q94 419 69 420L27 423ZM177 596L129 631Q165 710 231 710Q255 710 301 696T368 682T409 714L463 685Q430 598 360 598Q338 598 294 611T233 625T204 620T177 596Z" />
<glyph unicode="&#xf2;" glyph-name="ograve" horiz-adv-x="528" d="M263 73Q372 73 372 249Q372 338 348 384T266 430T181 386T154 266Q154 125 206 89Q229 73 263 73ZM33 252Q33 326 55 380T114 464Q185 518 271 518Q331 518 372 499T437 454T477 380T494 265Q494
127 427 56T256 -15T92 52T33 252ZM484 786L600 594L561 561L433 685Q408 708 408 728T437 764L484 786Z" />
<glyph unicode="&#xf3;" glyph-name="oacute" horiz-adv-x="528" d="M263 73Q372 73 372 249Q372 338 348 384T266 430T181 386T154 266Q154 125 206 89Q229 73 263 73ZM33 252Q33 326 55 380T114 464Q185 518 271 518Q331 518 372 499T437 454T477 380T494 265Q494
127 427 56T256 -15T92 52T33 252ZM186 594L302 786L349 764Q378 748 378 728T353 685L225 561L186 594Z" />
<glyph unicode="&#xf4;" glyph-name="ocircumflex" horiz-adv-x="528" d="M263 73Q372 73 372 249Q372 338 348 384T266 430T181 386T154 266Q154 125 206 89Q229 73 263 73ZM33 252Q33 326 55 380T114 464Q185 518 271 518Q331 518 372 499T437 454T477 380T494
265Q494 127 427 56T256 -15T92 52T33 252ZM144 562L103 594L218 745Q238 771 261 771Q286 771 307 743L420 595L379 561L261 665L144 562Z" />
<glyph unicode="&#xf5;" glyph-name="otilde" horiz-adv-x="528" d="M263 73Q372 73 372 249Q372 338 348 384T266 430T181 386T154 266Q154 125 206 89Q229 73 263 73ZM33 252Q33 326 55 380T114 464Q185 518 271 518Q331 518 372 499T437 454T477 380T494 265Q494
127 427 56T256 -15T92 52T33 252ZM147 596L99 631Q135 710 201 710Q225 710 271 696T338 682T379 714L433 685Q400 598 330 598Q308 598 264 611T203 625T174 620T147 596Z" />
<glyph unicode="&#xf6;" glyph-name="odieresis" horiz-adv-x="528" d="M263 73Q372 73 372 249Q372 338 348 384T266 430T181 386T154 266Q154 125 206 89Q229 73 263 73ZM33 252Q33 326 55 380T114 464Q185 518 271 518Q331 518 372 499T437 454T477 380T494
265Q494 127 427 56T256 -15T92 52T33 252ZM330 581T311 599T292 646T311 694T361 714T410 695T430 647T411 600T361 581ZM130 581T111 599T92 646T111 694T161 714T210 695T230 647T211 600T161 581Z" />
<glyph unicode="&#xf7;" glyph-name="divide" horiz-adv-x="535" d="M238 60T221 78T204 126T221 175T268 195T316 177T334 129T316 80T268 60ZM238 437T221 455T204 503T221 552T268 572T316 554T334 506T316 457T268 437ZM470 362V266H65V362H470Z" />
<glyph unicode="&#xf8;" glyph-name="oslash" horiz-adv-x="528" d="M137 -84L65 -48L107 38Q35 107 35 252Q35 326 57 380T116 464Q187 518 273 518Q317 518 352 507L390 583L463 548L423 468Q496 404 496 266T429 56T257 -15Q213 -15 177 -3L137 -84ZM265 73Q374
73 374 249Q374 313 361 353L222 81Q241 73 265 73ZM267 430Q210 430 183 386T156 268T168 152L306 423Q291 430 267 430Z" />
<glyph unicode="&#xf9;" glyph-name="ugrave" horiz-adv-x="591" d="M563 79V0H401V65Q346 -13 239 -13Q84 -13 84 160V391Q84 418 59 419L27 421V503H203V186Q203 133 218 106T280 79T355 108T384 178V389Q384 405 379 411T359 419L327 421V503H503V111Q503 95
508 90T528 82L563 79ZM234 786L350 594L311 561L183 685Q158 708 158 728T187 764L234 786Z" />
<glyph unicode="&#xfa;" glyph-name="uacute" horiz-adv-x="591" d="M563 79V0H401V65Q346 -13 239 -13Q84 -13 84 160V391Q84 418 59 419L27 421V503H203V186Q203 133 218 106T280 79T355 108T384 178V389Q384 405 379 411T359 419L327 421V503H503V111Q503 95
508 90T528 82L563 79ZM204 594L320 786L367 764Q396 748 396 728T371 685L243 561L204 594Z" />
<glyph unicode="&#xfb;" glyph-name="ucircumflex" horiz-adv-x="591" d="M563 79V0H401V65Q346 -13 239 -13Q84 -13 84 160V391Q84 418 59 419L27 421V503H203V186Q203 133 218 106T280 79T355 108T384 178V389Q384 405 379 411T359 419L327 421V503H503V111Q503
95 508 90T528 82L563 79ZM157 562L116 594L231 745Q251 771 274 771Q299 771 320 743L433 595L392 561L274 665L157 562Z" />
<glyph unicode="&#xfc;" glyph-name="udieresis" horiz-adv-x="591" d="M563 79V0H401V65Q346 -13 239 -13Q84 -13 84 160V391Q84 418 59 419L27 421V503H203V186Q203 133 218 106T280 79T355 108T384 178V389Q384 405 379 411T359 419L327 421V503H503V111Q503
95 508 90T528 82L563 79ZM346 581T327 599T308 646T327 694T377 714T426 695T446 647T427 600T377 581ZM146 581T127 599T108 646T127 694T177 714T226 695T246 647T227 600T177 581Z" />
<glyph unicode="&#xfd;" glyph-name="yacute" horiz-adv-x="573" d="M401 19V95Q346 17 239 17Q84 17 84 190V391Q84 418 59 419L27 421V503H203V216Q203 163 218 136T280 109T355 138T384 208V389Q384 406 379 412T359 419L327 421V503H503V19Q503 -102 445 -158T268
-214T83 -181V-42L178 -34V-82Q178 -109 203 -118T272 -128Q401 -128 401 19ZM205 594L321 786L368 764Q397 748 397 728T372 685L244 561L205 594Z" />
<glyph unicode="&#xfe;" glyph-name="thorn" horiz-adv-x="568" d="M406 260Q406 429 294 429Q258 429 231 408T204 354V105Q242 80 297 80T379 129T406 260ZM529 276Q529 138 472 62T311 -15Q251 -15 204 14V-124L285 -128V-207H27V-131L60 -128Q75 -126 82 -120T89
-95V604Q89 627 64 628L29 630V713H204V476Q249 518 325 518Q418 518 473 454T529 276Z" />
<glyph unicode="&#xff;" glyph-name="ydieresis" horiz-adv-x="573" d="M401 19V95Q346 17 239 17Q84 17 84 190V391Q84 418 59 419L27 421V503H203V216Q203 163 218 136T280 109T355 138T384 208V389Q384 406 379 412T359 419L327 421V503H503V19Q503 -102 445
-158T268 -214T83 -181V-42L178 -34V-82Q178 -109 203 -118T272 -128Q401 -128 401 19ZM339 581T320 599T301 646T320 694T370 714T419 695T439 647T420 600T370 581ZM139 581T120 599T101 646T120 694T170 714T219 695T239 647T220 600T170 581Z" />
<glyph unicode="&#x2013;" glyph-name="endash" horiz-adv-x="500" d="M0 244V327H500V244H0Z" />
<glyph unicode="&#x2014;" glyph-name="emdash" horiz-adv-x="1000" d="M0 244V327H1000V244H0Z" />
<glyph unicode="&#x2018;" glyph-name="quoteleft" horiz-adv-x="220" d="M200 711L142 475Q81 482 50 498Q31 508 31 529T42 569L137 734L200 711Z" />
<glyph unicode="&#x2019;" glyph-name="quoteright" horiz-adv-x="212" d="M31 498L89 734Q150 727 181 711Q200 701 200 680T189 640L94 475L31 498Z" />
<glyph unicode="&#x201a;" glyph-name="quotesinglbase" horiz-adv-x="227" d="M192 74L90 -147L27 -128L57 62Q65 112 106 112Q127 112 138 106T157 95T168 89T180 82T192 74Z" />
<glyph unicode="&#x201c;" glyph-name="quotedblleft" horiz-adv-x="386" d="M200 711L142 475Q81 482 50 498Q31 508 31 529T42 569L137 734L200 711ZM366 711L308 475Q247 482 216 498Q197 508 197 529T208 569L303 734L366 711Z" />
<glyph unicode="&#x201d;" glyph-name="quotedblright" horiz-adv-x="378" d="M31 498L89 734Q150 727 181 711Q200 701 200 680T189 640L94 475L31 498ZM197 498L255 734Q316 727 347 711Q366 701 366 680T355 640L260 475L197 498Z" />
<glyph unicode="&#x201e;" glyph-name="quotedblbase" horiz-adv-x="393" d="M192 74L90 -147L27 -128L57 62Q65 112 106 112Q127 112 138 106T157 95T168 89T180 82T192 74ZM358 74L256 -147L193 -128L223 62Q231 112 272 112Q293 112 304 106T323 95T334 89T346
82T358 74Z" />
<glyph unicode="&#x2022;" glyph-name="bullet" horiz-adv-x="500" d="M199 186T167 220T134 309T166 399T250 433T333 399T366 310T334 220T250 186Z" />
<glyph unicode="&#x2039;" glyph-name="guilsinglleft" horiz-adv-x="326" d="M293 406L173 263L286 103L239 61L65 222Q47 239 47 265T76 315L246 451L293 406Z" />
<glyph unicode="&#x203a;" glyph-name="guilsinglright" horiz-adv-x="326" d="M154 263L34 408L81 453L251 317Q280 294 280 267T260 221L88 63L41 105L154 263Z" />
</font>
</defs>
</svg>
